#TITLE:Drop Out;
#SUBTITLE:(Falling Beatz Mix);
#ARTIST:NW100;
#TITLETRANSLIT:;
#SUBTITLETRANSLIT:;
#ARTISTTRANSLIT:;
#CREDIT:;
#BANNER:;
#BACKGROUND:dropout-bg.png;
#LYRICSPATH:;
#CDTITLE:;
#MUSIC:Drop Out.mp3;
#MUSICLENGTH:75.075;
#OFFSET:-0.080;
#SAMPLESTART:60.559;
#SAMPLELENGTH:12.000;
#SELECTABLE:YES;
#BPMS:0.000=99.100;
#STOPS:;
#BGCHANGES:;
#FIRSTBEAT:16.000;

#LASTBEAT:121.500;

#SONGFILENAME:Songs/EXTRA/Drop Out/dropout.sm;

#HASMUSIC:1;

#HASBANNER:0;


//---------------dance-single - BASIC----------------
#NOTES:
     dance-single:
     BASIC:
     easy:
     4:
     0.331,0.659,0.626,0.133,0.000,117.000,47.000,10.000,0.000,0.000:  // measure 1
0000
0000
0000
0000
,  // measure 2
0000
0000
0000
0000
,  // measure 3
0000
0000
0000
0000
,  // measure 4
0000
0000
0000
0000
,  // measure 5
2000
0000
0000
0000
,  // measure 6
0002
0000
0000
3003
,  // measure 7
0010
0100
0010
0100
,  // measure 8
1000
0001
1000
0001
,  // measure 9
0010
0100
0010
0010
,  // measure 10
1000
0001
1000
1000
,  // measure 11
0010
0100
0010
0100
0000
0010
0100
0000
,  // measure 12
1100
0011
1100
0000
,  // measure 13
1000
0001
1000
0001
0000
1000
0001
0000
,  // measure 14
0101
1010
0101
0000
,  // measure 15
2000
3002
2003
3002
0000
1000
1003
0000
,  // measure 16
1001
0110
1001
0000
,  // measure 17
0020
0230
0320
0230
0000
0010
0310
0000
,  // measure 18
0110
1001
0110
0000
,  // measure 19
1100
1010
0011
0101
,  // measure 20
1100
1100
1010
1010
0011
0011
0101
0101
,  // measure 21
1100
1100
1100
1100
1010
1010
1010
1010
,  // measure 22
0011
0011
0011
0011
0101
0101
0101
0101
,  // measure 23
0010
0100
0010
0100
,  // measure 24
1000
0001
1000
0001
,  // measure 25
0010
0100
0010
0010
,  // measure 26
1000
0001
1000
1000
,  // measure 27
0010
0100
0010
0100
0000
0010
0100
0000
,  // measure 28
1100
0011
1100
0000
,  // measure 29
1000
0001
1000
0001
0000
1000
0001
0000
,  // measure 30
0101
1010
0101
0000
,  // measure 31
1001
0000
0000
0000
;

//---------------dance-single - ANOTHER----------------
#NOTES:
     dance-single:
     ANOTHER:
     medium:
     5:
     0.323,0.679,0.440,0.027,0.000,135.000,33.000,2.000,0.000,0.000:  // measure 1
0000
0000
0000
0000
,  // measure 2
0000
0000
0000
0000
,  // measure 3
0000
0000
0000
0000
,  // measure 4
0000
0000
0000
0000
,  // measure 5
2000
0000
0000
0000
,  // measure 6
0002
0000
0000
3003
,  // measure 7
1000
0001
1000
0000
0010
0010
0010
0000
,  // measure 8
0100
0010
0100
0000
0001
0001
0001
0000
,  // measure 9
1000
0001
1000
0000
0010
0010
0010
0000
,  // measure 10
0100
0010
0100
0000
0001
0001
0001
0000
,  // measure 11
1000
1000
1000
1000
1000
0001
0001
0000
,  // measure 12
0010
0100
0010
0100
0000
0000
0000
0000
,  // measure 13
0001
0001
0001
0001
0001
1000
1000
0000
,  // measure 14
0100
0010
0100
0010
0000
0000
0000
0000
,  // measure 15
0010
0010
0010
0010
0010
0100
0100
0000
,  // measure 16
1000
0001
1000
0001
0000
0000
0000
0000
,  // measure 17
0100
0100
0100
0100
0100
0010
0010
0000
,  // measure 18
0001
1000
0001
1000
0000
0000
0000
0000
,  // measure 19
1001
1001
1001
1001
1001
1001
1001
1001
,  // measure 20
1100
1100
1100
1100
1100
1100
1100
1100
,  // measure 21
0011
0011
0011
0011
0011
0011
0011
0011
,  // measure 22
0110
0110
0110
0110
0110
0110
0110
0110
,  // measure 23
0000
0100
0000
0100
0000
0010
0010
0000
,  // measure 24
0000
1000
0000
1000
0000
0010
0010
0000
,  // measure 25
0000
0001
0000
0001
0000
0010
0010
0000
,  // measure 26
0000
0010
0000
0010
0000
0010
0010
0000
,  // measure 27
1000
0100
0000
0000
0001
0100
0000
0000
,  // measure 28
0010
0001
0000
0000
0001
0100
0000
0000
,  // measure 29
0010
1000
0000
0000
1000
0100
0000
0000
,  // measure 30
0010
0100
0000
0000
0100
0010
0000
0000
,  // measure 31
1001
0000
0000
0000
;

//---------------dance-single - MANIAC----------------
#NOTES:
     dance-single:
     MANIAC:
     hard:
     9:
     0.464,0.688,0.453,0.040,0.353,207.000,34.000,3.000,0.000,0.000:  // measure 1
0000
0000
0000
0000
,  // measure 2
0000
0000
0000
0000
,  // measure 3
0000
0000
0000
0000
,  // measure 4
0000
0000
0000
0000
,  // measure 5
2000
0000
0000
0000
,  // measure 6
0002
0000
0000
3003
,  // measure 7
1000
1000
0001
0001
,  // measure 8
0100
0000
0100
0000
0010
0010
0010
0000
,  // measure 9
1000
0001
1000
0000
0000
1001
0000
0000
,  // measure 10
0100
0010
0100
0000
0000
0110
0000
0000
,  // measure 11
1000
0100
1000
0100
1000
0100
1000
0100
1000
0100
1000
0000
1000
0000
0000
0000
,  // measure 12
0010
0100
0010
0000
0000
0110
0000
0000
,  // measure 13
0010
0001
0010
0001
0010
0001
0010
0001
0010
0001
0010
0000
0010
0000
0000
0000
,  // measure 14
0001
1000
0001
0000
0000
1001
0000
0000
,  // measure 15
1000
0010
1000
0010
1000
0010
1000
0010
1000
0010
1000
0000
1000
0000
0000
0000
,  // measure 16
1000
0001
1000
0000
0000
1001
0000
0000
,  // measure 17
0100
0001
0100
0001
0100
0001
0100
0001
0100
0001
0100
0000
0100
0000
0000
0000
,  // measure 18
0100
0000
0100
0100
0000
0000
0000
0000
0000
0000
0000
0000
0000
0000
0000
0000
,  // measure 19
1100
0101
1100
0101
0110
0110
1100
0101
,  // measure 20
0110
1010
1010
0110
0011
0011
1001
1001
,  // measure 21
0101
1001
1100
1001
1100
1001
0101
0011
,  // measure 22
0101
0011
0101
1001
0110
0000
0000
0000
,  // measure 23
1000
0100
0001
0100
1000
0010
0001
0010
,  // measure 24
1000
0100
0001
0100
1000
0010
0001
0010
,  // measure 25
1000
0100
1000
0010
1000
0100
1000
0010
,  // measure 26
0001
0010
1000
0010
0001
0010
1000
0000
,  // measure 27
1000
0001
1000
0001
1000
0100
1000
0100
0010
0100
0010
0100
1000
0100
1000
0100
,  // measure 28
1000
0001
1000
0001
0100
0001
0100
0001
0010
0001
0010
0001
0100
0001
0100
0001
,  // measure 29
1000
0001
1000
0001
1000
0100
1000
0100
0010
0100
0010
0100
1000
0100
1000
0100
,  // measure 30
1000
0001
1000
0001
0100
0001
0100
0001
0010
0001
0010
0001
0100
0001
0100
0001
,  // measure 31
2000
0000
0000
3000
0000
0000
0000
0000
;
